您的位置:龙8国际 >> 动漫 >> 剧场动画 >> 【EX8】[名侦探柯南剧场版M21][殷红的恋歌唐红的恋歌][BDRip][简体][1080P]
【EX8】[名侦探柯南剧场版M21][殷红的恋歌唐红的恋歌][BDRip][简体][1080P]
发布用户 qweasdmoro
添加日期 2017/10/22 13:36:49
大  小 1.50 GB
最后更新 2017/10/22 13:36:49
标  签 剧场动画,动漫
喜  欢
分  享
eD2k链接
下面是用户共享的文件列表,可以使用迅雷、QQ旋风等软件进行下载,点击文件名进行下载
【EX8】[名侦探柯南剧场版M21][殷红的恋歌.唐红的恋歌][BDRip][简体][1080P].mp4 1.50 GB
1.50 GB
代码
Complete name : [EX8][Detective Conan.M21][ka ra ku re na i no love letter][BD][GB][1080P].mp4
Format : MPEG-4
Format profile : Base Media
Codec ID : isom (isom)
File size : 1.50 GiB
Duration : 1 h 52 min
Overall bit rate mode : Variable
Overall bit rate : 1 918 kb/s
Encoded date :
Tagged date :

Video
ID : 1
Format : AVC
Format/Info : Advanced Video Codec
Format profile : High@L4
Format settings, CABAC : Yes
Format settings, RefFrames : 4 frames
Codec ID : avc1
Codec ID/Info : Advanced Video Coding
Duration : 1 h 52 min
Bit rate : 1 657 kb/s
Maximum bit rate : 23.4 Mb/s
Width : 1 920 pixels
Height : 1 080 pixels
Display aspect ratio : 16:9
Frame rate mode : Variable
Frame rate : 23.976 (24000/1001) FPS
Minimum frame rate : 23.810 FPS
Maximum frame rate : 24.390 FPS
Color space : YUV
Chroma subsampling : 4:2:0
Bit depth : 8 bits
Scan type : Progressive
Bits/(Pixel*Frame) : 0.033
Stream size : 1.30 GiB (86%)
Writing library : x264 core 148 r2721+46 0c4b09a xiaowan [8-bit@all X86_64]
Encoding settings : cabac=1 / ref=4 / deblock=1:1:1 / analyse=0x3:0x133 / me=umh / subme=10 / psy=1 / fade_compensate=0.00 / psy_rd=0.30:0.00 / mixed_ref=1 / me_range=24 / chroma_me=1 / trellis=2 / 8x8dct=1 / cqm=0 / deadzone=21,11 / fast_pskip=1 / chroma_qp_offset=-2 / threads=16 / lookahead_threads=1 / sliced_threads=0 / nr=0 / decimate=1 / interlaced=0 / bluray_compat=0 / constrained_intra=0 / fgo=0 / bframes=3 / b_pyramid=2 / b_adapt=2 / b_bias=0 / direct=3 / weightb=1 / open_gop=0 / weightp=2 / keyint=240 / keyint_min=1 / scenecut=60 / intra_refresh=0 / rc_lookahead=60 / rc=crf / mbtree=1 / crf=22.5000 / qcomp=0.50 / qpmin=0:0:0 / qpmax=69:69:69 / qpstep=4 / ip_ratio=1.40 / aq=2:0.80 / aq-sensitivity=10.00 / aq-factor=1.00:1.00:1.00 / aq2=0 / aq3=0
Encoded date :
Tagged date :
Color range : Limited
Matrix coefficients :

Audio
ID : 2
Format : AAC
Format/Info : Advanced Audio Codec
Format profile : LC
Codec ID : 40
Duration : 1 h 52 min
Bit rate mode : Variable
Bit rate : 256 kb/s
Maximum bit rate : 278 kb/s
Channel(s) : 6 channels
Channel positions : Front: L C R, Side: L R, LFE
Sampling rate : 48.0 kHz
Frame rate : 46.875 FPS (1024 SPF)
Compression mode : Lossy
Stream size : 206 MiB (13%)
Encoded date :
Tagged date :

[EX8][Detective Conan.M21][ka ra ku re na i no love letter][BD][GB][1080P].mp4 (1.5 GB)
[EX8][Detective Conan.M21][ka ra ku re na i no love letter][BD][GB][1080P].nfo (3.3 KB)
小愿8压制组www.ex8zz.xin (2.1 KB)