您的位置:龙8国际 >> 综艺 >> 纪录片 >> Disgraced.2017.720p.WEBRip.DD5.1.x264-monkee 1.62GB
Disgraced.2017.720p.WEBRip.DD5.1.x264-monkee 1.62GB
发布用户 dj1937
添加日期 2017/4/12 13:54:01
大  小
最后更新 2017/4/12 13:54:01
标  签 Disgraced,2017,720p
喜  欢
分  享
磁力链接(Magnet URI)
下面是用户共享的磁力链接,可以使用迅雷、QQ旋风等软件进行下载,点击进行下载

[网盘分流]
如电驴无法下载,请大家从网盘下载后将文件移至电驴文件夹用eMule做种,让更多人下载
网盘下载 | http://hiyp.cc/file-1268989.html|http://www.feemoo.com/file-1051056.html

◎译  名

◎片  名 Disgraced

◎年  代 2017

◎国  家 美国

◎类  别 记录

◎语  言 英语

◎IMDb评分 N/A

◎IMDb链接 http://www.imdb.com/title/tt6627134/

◎BT之家整理 http://www.btbtt.co

◎片  长 1h 42min

◎导  演 Pat Kondelis

◎简  介

Video
ID : 2
Format : AVC
Format/Info : Advanced Video Codec
Format profile : High@L3.1
Format settings, CABAC : Yes
Format settings, ReFrames : 5 frames
Codec ID : V_MPEG4/ISO/AVC
Duration : 1h 41mn
Bit rate : 1 602 Kbps
Width : 1 280 pixels
Height : 720 pixels
Display aspect ratio : 16:9
Frame rate mode : Constant
Frame rate : 23.976 (24000/1001) fps
Color space : YUV
Chroma subsampling : 4:2:0
Bit depth : 8 bits
Scan type : Progressive
Bits/(Pixel*Frame) : 0.072
Stream size : 1.13 GiB (70%)
Default : Yes
Forced : No

Audio
ID : 1
Format : E-AC-3
Format/Info : Audio Coding 3
Format settings, Endianness : Big
Codec ID : A_EAC3
Duration : 1h 41mn
Bit rate mode : Constant
Bit rate : 640 Kbps
Channel(s) : 6 channels
Channel positions : Front: L C R, Side: L R, LFE
Sampling rate : 48.0 KHz
Frame rate : 187.500 fps (256 spf)
Compression mode : Lossy
Delay relative to video : -83ms
Stream size : 463 MiB (28%)
Default : Yes
Forced : No

Text
ID : 3
Format : UTF-8
Codec ID : S_TEXT/UTF8
Codec ID/Info : UTF-8 Plain Text
Language : English
Default : No
Forced : No



CC下载站 |精品社区 | 68资源网